extratorrent - A Fan Made Alternative Login   |   Register
Important Information
Registrations are open now
-------------------------------------

Please click here to register with Extratorrent2 to recieve latest updates, add bookmarks and to post comments.

Friends
Friends

1) Filebebo
-------------------------------------
2) MoviesDig
-------------------------------------
3) Torrentz2.cc
-------------------------------------
4) Torrents.me

Extratorrent2 > Categories > Movies > Raazi (2018) Hindi New 720p Pre-DvDRip x264 AAC 1GB[MRbuZ] torrent


Browse Movies torrents

Raazi (2018) Hindi New 720p Pre-DvDRip x264 AAC 1GB[MRbuZ] torrent


Download torrent: Download Raazi (2018) Hindi New 720p Pre-DvDRip x264 AAC 1GB[MRbuZ] torrent Magnet link Bookmark Torrent: Raazi (2018) Hindi New 720p Pre-DvDRip x264 AAC 1GB[MRbuZ]   Raazi (2018) Hindi New 720p Pre-DvDRip x264 AAC 1GB[MRbuZ] torrent
Info hash: D5B2AC481898B57328A3DEE35344A63EBF97E1DC
Category: Categories > Movies
Trackers:
View all torrent trackers >
Health:
 seeds: 9 ,  leechers: 7 |  Update >
Torrent language: Hindi Hindi
Total Size: 1,015.9 MB
Files List:
3    View torrent files >
Uploader:
ictv
Torrent added: May 13, 2018, 3:30 pm
Tags: "Action", "Crime", "Drama", "Thriller"
IMDB: http://www.imdb.com/title/tt7098658
Users rating: ---, not rated. please login to rate.

Download Raazi (2018) Hindi New 720p Pre-DvDRip x264 AAC 1GB[MRbuZ] torrent



Torrent Description

Visit Our Site www.mrbuz.com

Raazi (2018) Hindi New 720p Pre-DvDRip x264 AAC 1GB[MRbuZ]

http://www.imdb.com/title/tt7098658/



General
Unique ID : 96959889411002407955799698336898461573 (0x48F1CBA21822CB25A41F4DBEDEB9AF85)
Complete name : [www.MRbuZ.com]Raazi (2018) Hindi New 720p Pre-DvDRip x264 AAC 1GB[MRbuZ]\www.MRbuZ.com-Raazi (2018) Hindi New 720p Pre-DvDRip x264 AAC [MRbuZ].mkv
Format : Matroska
Format version : Version 4 / Version 2
File size : 998 MiB
Duration : 2 h 6 min
Overall bit rate : 1 104 kb/s
Movie name : www.MRbuZ.com
Encoded date : UTC 2018-05-12 12:33:37
Writing application : mkvmerge v22.0.0 ('At The End Of The World') 64-bit
Writing library : libebml v1.3.5 + libmatroska v1.4.8

Video
ID : 1
Format : AVC
Format/Info : Advanced Video Codec
Format profile :
Format settings, CABAC : Yes
Format settings, ReFrames : 8 frames
Codec ID : V_MPEG4/ISO/AVC
Duration : 2 h 6 min
Bit rate : 1 008 kb/s
Width : 1 280 pixels
Height : 544 pixels
Display aspect ratio : 2.35:1
Frame rate mode : Constant
Frame rate : 25.000 FPS
Color space : YUV
Chroma subsampling : 4:2:0
Bit depth : 8 bits
Scan type : Progressive
Bits/(Pixel*Frame) : 0.058
Stream size : 909 MiB (91%)
Title : www.MRbuZ.com
Writing library : x264 core 148 r2708 86b7198
Encoding settings : cabac=1 / ref=8 / deblock=0:0:0 / analyse=0x3:0 / me=dia / subme=0 / psy=1 / psy_rd=1.00:0.00 / mixed_ref=0 / me_range=16 / chroma_me=1 / trellis=0 / 8x8dct=1 / cqm=0 / deadzone=21,11 / fast_pskip=1 / chroma_qp_offset=0 / threads=17 / lookahead_threads=2 / sliced_threads=0 / nr=0 / decimate=1 / interlaced=0 / bluray_compat=0 / constrained_intra=0 / bframes=4 / b_pyramid=2 / b_adapt=1 / b_bias=0 / direct=1 / weightb=1 / open_gop=0 / weightp=0 / keyint=250 / keyint_min=25 / scenecut=0 / intra_refresh=0 / rc_lookahead=0 / rc=abr / mbtree=0 / bitrate=1008 / ratetol=1.0 / qcomp=0.60 / qpmin=0 / qpmax=69 / qpstep=4 / vbv_maxrate=50000 / vbv_bufsize=62500 / nal_hrd=none / filler=0 / ip_ratio=1.40 / pb_ratio=1.30 / aq=0
Default : Yes
Forced : No
Color range : Limited
Color primaries : BT.601 PAL
Transfer characteristics : BT.709
Matrix coefficients : BT.601

Audio
ID : 2
Format : AAC
Format/Info : Advanced Audio Codec
Format profile : LC
Codec ID : A_AAC
Duration : 2 h 6 min
Bit rate : 96.0 kb/s
Channel(s) : 2 channels
Channel positions : Front: L R
Sampling rate : 44.1 kHz
Frame rate : 43.066 FPS (1024 spf)
Compression mode : Lossy
Delay relative to video : -23 ms
Stream size : 86.9 MiB (9%)
Title : www.MRbuZ.com
Default : Yes
Forced : No




Download Raazi (2018) Hindi New 720p Pre-DvDRip x264 AAC 1GB[MRbuZ] torrent


Related Torrents


Comments   (please login to add your comment!)

firing squad     hindi dual audio     raid     wifebucket     hailey     share cock     evilangel riley jenner     anabolic     deadpool     horror     manimal 1983     law and order svu     anal asia     sujaidr     three way sex ed     make a porn     dawna     a state of mixes     tomorrow     laung laachi hd     vixen natalia starr jill kassidy     family anal     vicky     tinker     


Home - Browse Torrents

Made with love by an Extratorrent Fan!